Olá, Visitante. Por favor entre ou registe-se se ainda não for membro.
Perdeu o seu e-mail de activação?

23 / Set / 2021, 18:30

Entrar com nome de utilizador, password e duração da sessão



Membros
Estatisticas
  • Total de Mensagens: 18706
  • Total de Tópicos: 4276
  • Online Hoje: 130
  • Online Total: 996
  • (12 / Dez / 2019, 21:06)
Utilizadores Online
Membros: 0
Visitantes: 116
Total: 116
116 Visitantes, 0 Membros

Autor Tópico: MediaInfo informação técnica sobre o vídeo  (Lida 12275 vezes)

0 Membros e 1 Visitante estão a ver este tópico.

Offline Paulo Paulino

  • Regular
  • *
  • Mensagens: 56
    • Alenproduções
MediaInfo informação técnica sobre o vídeo
« em: 20 / Mai / 2011, 00:56 »
Deixo aqui um link para um pequeno software que permite recolher toda a informação detalhada sobre um arquivo de vídeo e áudio.
De especial relevância para o Bit rate e o Bit depth para podermos analisar com que qualidade o nosso equipamento grava.   


http://mediainfo.sourceforge.net/pt

Offline gcoutinho

  • Efectivo
  • *
  • Mensagens: 401
  • Gravar em Auto é para turistas!
    • Gilbertocoutinho.com
Re:MediaInfo informação técnica sobre o vídeo
« Responder #1 em: 20 / Mai / 2011, 09:18 »
Eu também uso o MediaInfo para MAC, muito bom para ver os detalhes do Codec usado.
Canon XHA1 - Canon 7D - Steadycam EEMOV - Flowpod Varizoom

Offline Paulo Paulino

  • Regular
  • *
  • Mensagens: 56
    • Alenproduções
Re:MediaInfo informação técnica sobre o vídeo
« Responder #2 em: 20 / Mai / 2011, 16:24 »
Já agora podíamos aproveitar este tópico para vermos com que qualidade gravam os diferentes equipamentos que o pessoal usa.

De certo que entre todos aqui no fórum devemos usar várias camaras bem diferentes, assim seria um teste para vermos que maquina tira bonecos com mais qualidade, pode resultar num arquivo interessante de dados valiosos e úteis para quem esta a pensar adquirir novo equipamento. Ou mais que não seja para termos uma ideia de como grava cada modelo.

Eu sou da opinião que quanto mais informação tivermos melhor.
Basta meter o mediainfo a ler os ficheiros directamente capturados do cartão ou da tape , escolher a opção de apresentar os dados em modo de texto, copiar e colar.

Vou deixar um exemplo do formato que proponho:

PANASONIC HPX 371

General
Complete name                    : V:\VIDEO\veraepedro\CONTENTS\VIDEO\0005GG.MXF
Format                           : MXF
Format_Commercial_IfAny          : AVC-Intra 100
File size                        : 157 MiB
Duration                         : 11s 560ms
Overall bit rate                 : 114 Mbps
Encoded date                     : 2011-04-03 11:24:42.000
Writing application              : Panasonic P2 2.0
Writing library                  : Panasonic P2 2.0

Video
ID                               : 1
Format                           : AVC
Format/Info                      : Advanced Video Codec
Format_Commercial_IfAny          : AVC-Intra 100
Format profile                   : High 4:2:2@L4.1
Format settings, CABAC           : No
Format settings, GOP             : N=1
Format_Settings_Wrapping         : Clip
Duration                         : 11s 560ms
Bit rate                         : 114 Mbps
Width                            : 1 280 pixels
Height                           : 720 pixels
Display aspect ratio             : 16:9
Frame rate                       : 50.000 fps
Standard                         : Component
Color space                      : YUV
Chroma subsampling               : 4:2:2
Bit depth                        : 10 bits
Scan type                        : Progressive
Bits/(Pixel*Frame)               : 2.467
Stream size                      : 157 MiB (100%)
Color primaries                  : BT.709-5, BT.1361, IEC 61966-2-4, SMPTE RP177
Transfer characteristics         : BT.709-5, BT.1361
Matrix coefficients              : BT.709-5, BT.1361, IEC 61966-2-4 709, SMPTE RP177
« Última modificação: 20 / Mai / 2011, 16:26 por Paulo Paulino »

Offline Paulo Paulino

  • Regular
  • *
  • Mensagens: 56
    • Alenproduções
Re:MediaInfo informação técnica sobre o vídeo
« Responder #3 em: 20 / Mai / 2011, 22:39 »
Aqui esta a ultima peça gravada com a minha configuração na XHA1

CANON XHA1
General
Complete name                    : E:\Ovibeja\Cap0507_001.avi
Format                           : AVI
Format/Info                      : Audio Video Interleave
File size                        : 180 MiB
Duration                         : 20s 120ms
Overall bit rate                 : 75.2 Mbps

Video
ID                               : 0
Format                           : Canopus HQ
Codec ID                         : CUVC
Codec ID/Info                    : Canopus HQ
Duration                         : 20s 120ms
Bit rate                         : 73.6 Mbps
Width                            : 1 440 pixels
Height                           : 1 080 pixels
Display aspect ratio             : 4:3
Frame rate                       : 25.000 fps
Bits/(Pixel*Frame)               : 1.893
Stream size                      : 177 MiB (98%)

Audio
ID                               : 1
Format                           : PCM
Format settings, Endianness      : Little
Format settings, Sign            : Signed
Codec ID                         : 1
Codec ID/Hint                    : Microsoft
Duration                         : 20s 120ms
Bit rate mode                    : Constant
Bit rate                         : 1 536 Kbps
Channel(s)                       : 2 channels
Sampling rate                    : 48.0 KHz
Bit depth                        : 16 bits
Stream size                      : 3.68 MiB (2%)
Interleave, duration             : 248 ms (6.21 video frames)

Offline gcoutinho

  • Efectivo
  • *
  • Mensagens: 401
  • Gravar em Auto é para turistas!
    • Gilbertocoutinho.com
CANON XHA1 NTSC
« Responder #4 em: 21 / Mai / 2011, 01:09 »
CANON XHA1 NTSC

General / Container Stream #1
   Video Codecs Used.................................MPEG-2 Video
   Audio Codecs Used.................................MPEG-1 Audio layer 2
   File Format.......................................MPEG-TS
   Total Stream BitRate..............................27.0 Mbps
Video Stream #1
   Codec (Human Name)................................MPEG Video
   Codec (FourCC)....................................2
   Codec Profile.....................................Main@High 1440
   Frame Width.......................................1 440 pixels
   Frame Height......................................1 080 pixels
   Frame Rate........................................29.970 fps
   Total Frames......................................1303
   Display Aspect Ratio..............................16:9
   Video Standard....................................Component
   Scan Type.........................................Interlaced
   Scan Order........................................TFF
   Color Space.......................................YUV
   QF (like Gordian Knot)............................0.536
   Codec Settings (Matrix)...........................Default
   Video Stream Length...............................43s 477ms
   Video Stream BitRate..............................25.0 Mbps
   Video Stream BitRate Mode.........................CBR
   Bit Depth.........................................8 bits
Audio Stream #1
   Codec.............................................MPEG Audio
   Codec (FourCC)....................................3
   Audio Stream Length...............................43s 944ms
   Audio Stream BitRate..............................384 Kbps
   Audio Stream BitRate Mode.........................CBR
   Number of Audio Channels..........................2
   Sampling Rate.....................................48.0 KHz
   Audio Stream Delay................................18s 338ms
   Audio Stream Size.................................2.01 MiB (1%)
« Última modificação: 21 / Mai / 2011, 01:11 por gcoutinho »
Canon XHA1 - Canon 7D - Steadycam EEMOV - Flowpod Varizoom

Offline gcoutinho

  • Efectivo
  • *
  • Mensagens: 401
  • Gravar em Auto é para turistas!
    • Gilbertocoutinho.com
CANON 7D
« Responder #5 em: 21 / Mai / 2011, 01:13 »
CANON 7D
Report for file: MVI_0001.MOV

General / Container Stream #1

   Video Codecs Used.................................AVC
   Audio Codecs Used.................................PCM
   File Format.......................................MPEG-4
   Total Stream BitRate..............................46.1 Mbps
Video Stream #1
   Codec (Human Name)................................AVC
   Codec (FourCC)....................................avc1
   Codec Profile.....................................Baseline@L5.0
   Frame Width.......................................1 920 pixels
   Frame Height......................................1 080 pixels
   Frame Rate........................................23.976 fps
   Total Frames......................................200
   Display Aspect Ratio..............................16:9
   Scan Type.........................................Progressive
   Color Space.......................................YUV
   Codec Settings (Summary)..........................1 Ref Frames
   QF (like Gordian Knot)............................0.897
   Codec Settings (CABAC)............................No
   Codec Settings (Reference Frames).................1
   Video Stream Length...............................8s 341ms
   Video Stream BitRate..............................44.6 Mbps
   Video Stream BitRate Mode.........................VBR
   Bit Depth.........................................8 bits
   Video Stream Size.................................44.3 MiB (97%)
   Video Stream Language.............................English
   Date of Original Encoding.........................UTC 2011-05-14 09:14:08
   Color Primaries...................................BT.709-5, BT.1361, IEC 61966-2-4, SMPTE RP177
   Transfer Characteristics..........................BT.709-5, BT.1361
   Matrix Coefficients...............................BT.601-6 525, BT.1358 525, BT.1700 NTSC, SMPTE 170M
Audio Stream #1
   Codec.............................................PCM
   Codec (FourCC)....................................sowt
   Audio Stream Length...............................8s 341ms
   Audio Stream BitRate..............................1 536 Kbps
   Audio Stream BitRate Mode.........................CBR
   Number of Audio Channels..........................2
   Sampling Rate.....................................48.0 KHz
   Bit Depth.........................................16 bits
   Audio Stream Size.................................1.53 MiB (3%)
   Audio Stream Language.............................English
   Date of Original Encoding.........................UTC 2011-05-14 09:14:08
Canon XHA1 - Canon 7D - Steadycam EEMOV - Flowpod Varizoom

Offline Paulo Paulino

  • Regular
  • *
  • Mensagens: 56
    • Alenproduções
Re:MediaInfo informação técnica sobre o vídeo
« Responder #6 em: 21 / Mai / 2011, 11:30 »
Antes do Hack Magiclantern uma gravação do ano passado.
A seguir vou meter uma que acabei de fazer com a mesma 550D e hack do magiclantern instalado.

Quero salientar que na minha opinião qualquer das canons 550d/7D/5D/60D so por si já gravam com uma qualidade óptima comparadas com as restantes profissionais e HDSLRS.

CANON 550D

General
Complete name                    : V:\VIDEO\cavalos\550D\MVI_1695.MOV
Format                           : MPEG-4
Format profile                   : QuickTime
Codec ID                         : qt  
File size                        : 33.6 MiB
Duration                         : 6s 0ms
Overall bit rate                 : 47.0 Mbps
Encoded date                     : UTC 2010-10-14 13:15:55
Tagged date                      : UTC 2010-10-14 13:15:55

Video
ID                               : 1
Format                           : AVC
Format/Info                      : Advanced Video Codec
Format profile                   : Baseline@L5.0
Format settings, CABAC           : No
Format settings, ReFrames        : 1 frame
Codec ID                         : avc1
Codec ID/Info                    : Advanced Video Coding
Duration                         : 6s 0ms
Bit rate mode                    : Variable
Bit rate                         : 45.5 Mbps
Width                            : 1 920 pixels
Height                           : 1 080 pixels
Original height                  : 1 088 pixels
Display aspect ratio             : 16:9
Original display aspect ratio    : 16:9
Frame rate mode                  : Constant
Frame rate                       : 25.000 fps
Color space                      : YUV
Chroma subsampling               : 4:2:0
Bit depth                        : 8 bits
Scan type                        : Progressive
Bits/(Pixel*Frame)               : 0.877
Stream size                      : 32.5 MiB (97%)
Language                         : English
Encoded date                     : UTC 2010-10-14 13:15:55
Tagged date                      : UTC 2010-10-14 13:15:55
Color primaries                  : BT.709-5, BT.1361, IEC 61966-2-4, SMPTE RP177
Transfer characteristics         : BT.709-5, BT.1361
Matrix coefficients              : BT.601-6 525, BT.1358 525, BT.1700 NTSC, SMPTE 170M

Audio
ID                               : 2
Format                           : PCM
Format settings, Endianness      : Little
Format settings, Sign            : Signed
Codec ID                         : sowt
Duration                         : 6s 0ms
Bit rate mode                    : Constant
Bit rate                         : 1 536 Kbps
Channel(s)                       : 2 channels
Sampling rate                    : 48.0 KHz
Bit depth                        : 16 bits
Stream size                      : 1.10 MiB (3%)
Language                         : English
Encoded date                     : UTC 2010-10-14 13:15:55
Tagged date                      : UTC 2010-10-14 13:15:55

« Última modificação: 21 / Mai / 2011, 11:31 por Paulo Paulino »

Offline Paulo Paulino

  • Regular
  • *
  • Mensagens: 56
    • Alenproduções
Re:MediaInfo informação técnica sobre o vídeo
« Responder #7 em: 21 / Mai / 2011, 11:34 »
CANON 550D + MAGICLANTERN

General
Complete name                    : C:\Users\Paulo\Desktop\100CANON\MVI_3113.MOV
Format                           : MPEG-4
Format profile                   : QuickTime
Codec ID                         : qt  
File size                        : 20.5 MiB
Duration                         : 1s 660ms
Overall bit rate                 : 104 Mbps
Encoded date                     : UTC 2011-05-21 10:10:36
Tagged date                      : UTC 2011-05-21 10:10:36

Video
ID                               : 1
Format                           : AVC
Format/Info                      : Advanced Video Codec
Format profile                   : Baseline@L5.0
Format settings, CABAC           : No
Format settings, ReFrames        : 1 frame
Codec ID                         : avc1
Codec ID/Info                    : Advanced Video Coding
Duration                         : 1s 660ms
Bit rate mode                    : Variable
Bit rate                         : 102 Mbps
Width                            : 1 280 pixels
Height                           : 720 pixels
Display aspect ratio             : 16:9
Frame rate mode                  : Constant
Frame rate                       : 50.000 fps
Color space                      : YUV
Chroma subsampling               : 4:2:0
Bit depth                        : 8 bits
Scan type                        : Progressive
Bits/(Pixel*Frame)               : 2.219
Stream size                      : 20.2 MiB (99%)
Language                         : English
Encoded date                     : UTC 2011-05-21 10:10:36
Tagged date                      : UTC 2011-05-21 10:10:36
Color primaries                  : BT.709-5, BT.1361, IEC 61966-2-4, SMPTE RP177
Transfer characteristics         : BT.709-5, BT.1361
Matrix coefficients              : BT.601-6 525, BT.1358 525, BT.1700 NTSC, SMPTE 170M

Audio
ID                               : 2
Format                           : PCM
Format settings, Endianness      : Little
Format settings, Sign            : Signed
Codec ID                         : sowt
Duration                         : 1s 660ms
Bit rate mode                    : Constant
Bit rate                         : 1 536 Kbps
Channel(s)                       : 2 channels
Sampling rate                    : 48.0 KHz
Bit depth                        : 16 bits
Stream size                      : 311 KiB (1%)
Language                         : English
Encoded date                     : UTC 2011-05-21 10:10:36
Tagged date                      : UTC 2011-05-21 10:10:36


Se alguém quiser analisar o ficheiro original para confirmar a veracidade dos valores aqui deixo o ficheiro para download.

Não liguem à qualidade da imagem pois nem me preocupei em dar luz na sala, nem sequer em focar, esta apenas a luz ambiente e disparei uns segundos para fazer um pequeno shot e mostrar o resultado do bitrate que se pode obter com este hack na maquina mais pequena desta gama das canons, a 550D.

http://www.alenproducoes.pt/lab/MVI_3113.zip
« Última modificação: 21 / Mai / 2011, 21:12 por Paulo Paulino »

Offline MPPais

  • Membro Gold
  • *****
  • Mensagens: 2,142
Re: MediaInfo informação técnica sobre o vídeo
« Responder #8 em: 13 / Fev / 2015, 19:05 »
MediaInfo foi atualizado para a versão 0.7.72: https://mediaarea.net/pt/MediaInfo/Download/Windows
Como acima foi explicado, o MediaInfo fornece  completa informação técnica sobre um arquivo de vídeo ou áudio, facto este que é muito útil em face a situações diversas que surgem perante a edição de tais arquivos. É um programa gratuito (licença GPL ou LGPL).

« Última modificação: 13 / Fev / 2015, 19:48 por MPPais »

Offline MPPais

  • Membro Gold
  • *****
  • Mensagens: 2,142
Re: MediaInfo informação técnica sobre o vídeo
« Responder #9 em: 25 / Jun / 2015, 12:56 »
Tem agora uma atualização para a versão 0.7.74: http://mediaarea.net/en/MediaInfo

Offline MPPais

  • Membro Gold
  • *****
  • Mensagens: 2,142
Re: MediaInfo informação técnica sobre o vídeo
« Responder #10 em: 02 / Set / 2015, 19:47 »
Hoje saiu a nova versão 0.7.77
http://mediaarea.net/en/MediaInfo
E agora a nova 0.7.78 (2 de Outubro, 2015):
 http://mediaarea.net/en/MediaInfo
« Última modificação: 02 / Out / 2015, 17:11 por MPPais »

Offline MPPais

  • Membro Gold
  • *****
  • Mensagens: 2,142
MediaInfo;Versão 0.7.79
« Responder #11 em: 02 / Nov / 2015, 20:15 »
MediaInfo foi atualizado para a versão 0.7.79:
http://mediaarea.net/en/MediaInfo

Offline MPPais

  • Membro Gold
  • *****
  • Mensagens: 2,142
Re: MediaInfo informação técnica sobre o vídeo
« Responder #12 em: 01 / Dez / 2015, 12:29 »
A nova versão 0.7.80 foi tornada pública ontem (30 de Novembro de 2015):
http://mediaarea.net/en/MediaInfo
A versão 0.7.81 de 31DEZ2015:
http://mediaarea.net/en/MediaInfo Havendo agora (27JAN2016) a versão 0.7.82: http://mediaarea.net/en/MediaInfo
« Última modificação: 03 / Fev / 2016, 15:29 por MPPais »

Offline MPPais

  • Membro Gold
  • *****
  • Mensagens: 2,142
Re: MediaInfo informação técnica sobre o vídeo
« Responder #13 em: 01 / Mar / 2016, 15:01 »
MediaInfo foi atualizado para a versão 0.7.83 (29 de Fevereiro de 2016.
http://mediaarea.net/en/MediaInfo

Offline MPPais

  • Membro Gold
  • *****
  • Mensagens: 2,142
Re: MediaInfo informação técnica sobre o vídeo
« Responder #14 em: 01 / Abr / 2016, 12:09 »
Foi atualizado para a versão 0.7.84 (31 de Março de 2016) e para a versão 0.7.85 em 29ABR2016
http://mediaarea.net/en/MediaInfo

« Última modificação: 29 / Abr / 2016, 20:26 por MPPais »